extratorrent - A Fan Made Alternative Login   |   Register
Important Information
Registrations are open now
-------------------------------------

Please click here to register with Extratorrent2 to recieve latest updates, add bookmarks and to post comments.

Friends
Friends

1) ProxyFix

Extratorrent2 > Categories > Movies > Game of Thrones S02 Complete 1080p BluRay x264 Dual Audio [Hindi DD2.0 - English DD5.1] - Esub ~ Ranvijay torrent


Browse Movies torrents

Game of Thrones S02 Complete 1080p BluRay x264 Dual Audio [Hindi DD2.0 - English DD5.1] - Esub ~ Ranvijay torrent


Download torrent: Download Game of Thrones S02 Complete 1080p BluRay x264 Dual Audio [Hindi DD2.0 - English DD5.1] - Esub ~ Ranvijay torrent Magnet link Bookmark Torrent: Game of Thrones S02 Complete 1080p BluRay x264 Dual Audio [Hindi DD2.0 - English DD5.1] - Esub ~ Ranvijay   Game of Thrones S02 Complete 1080p BluRay x264 Dual Audio [Hindi DD2.0 - English DD5.1] - Esub ~ Ranvijay torrent
Info hash: 2F889DF76D808EF4E2E9A2BFA7A4DDBAED4E55A0
Category: Categories > Movies
Trackers:
View all torrent trackers >
Health:
 seeds: 3 ,  leechers: 11 |  Update >
Torrent language: Hindi Hindi
Total Size: 9.4 GB
Files List:
11    View torrent files >
Uploader:
TheFighter
Torrent added: October 23, 2018, 4:46 am
Tags: Ranvijay, ShareSpark
Users rating: ---, not rated. please login to rate.

Download Game of Thrones S02 Complete 1080p BluRay x264 Dual Audio [Hindi DD2.0 - English DD5.1] - Esub ~ Ranvijay torrent



Torrent Description







Join My Facebook Group

Game of Thrones S02 Complete 1080p BluRay x264 Dual Audio [Hindi DD2.0 - English DD5.1] - Esub ~ Ranvijay


Thanks To KatMovieHD For Hindi Audio

Buy RDP Online



Format : Matroska
Format version : Version 4 / Version 2
File size : Variable
Duration : Variable
Overall bit rate : 2 540 kb/s

Video
ID : 1
Format : AVC
Format/Info : Advanced Video Codec
Bit rate : 1 962 kb/s
Width : 1 920 pixels
Height : 1 080 pixels
Display aspect ratio : 16:9
Frame rate mode : Constant
Frame rate : 23.976 (24000/1001) FPS
Color space : YUV
Chroma subsampling : 4:2:0
Bit depth : 8 bits
Scan type : Progressive
Bits/(Pixel*Frame) : 0.039
Stream size : 891 MiB (77%)
Title : ~Ranvijay~

Audio #1
ID : 2
Format : AAC
Format/Info : Advanced Audio Codec
Format profile : LC
Codec ID : A_AAC-2
Bit rate : 130 kb/s
Channel(s) : 2 channels
Channel positions : Front: L R
Sampling rate : 48.0 kHz
Frame rate : 46.875 FPS (1024 SPF)
Compression mode : Lossy
Delay relative to video : -21 ms
Stream size : 57.7 MiB (5%)
Title : ~Ranvijay~
Language : Hindi
Default : Yes
Forced : Yes

Audio #2
ID : 3
Format : AC-3
Format/Info : Audio Coding 3
Codec ID : A_AC3
Bit rate mode : Constant
Bit rate : 448 kb/s
Channel(s) : 6 channels
Channel positions : Front: L C R, Side: L R, LFE
Sampling rate : 48.0 kHz
Frame rate : 31.250 FPS (1536 SPF)
Bit depth : 16 bits
Compression mode : Lossy
Delay relative to video : -5 ms
Stream size : 203 MiB (18%)
Title : ~Ranvijay~
Language : English
Service kind : Complete Main
Default : No
Forced : No

Text
ID : 4
Format : PGS
Muxing mode : zlib
Codec ID : S_HDMV/PGS
Codec ID/Info : Picture based subtitle format used on BDs/HD-DVDs
Bit rate : 2 902 b/s
Count of elements : 42
Stream size : 496 KiB (0%)
Title : ~Ranvijay~
Language : English
Default : Yes
Forced : Yes
















Don't walk as you are king, walk as you don't care who the king is....!!

[/b]







Download Game of Thrones S02 Complete 1080p BluRay x264 Dual Audio [Hindi DD2.0 - English DD5.1] - Esub ~ Ranvijay torrent


Related Torrents


Comments   (please login to add your comment!)

glamour     me and mommy     18 basic instinct     milftoon comic     mom son     hindi porn     320kbps     loving     breanne     public     suicide squad 2     x angels coco kiss     la mummia the mummy 2017     gabbani     ass fucked     gene gnocchi     the big bang theory s11e08     the flash     uri     dear zindagi 2016     game of thrones x265 720p     1080p life happens 2011     numark     kenzie     


Home - Browse Torrents

Made with love by an Extratorrent Fan!