extratorrent - A Fan Made Alternative Login   |   Register
Important Information
Registrations are open now
-------------------------------------

Please click here to register with Extratorrent2 to recieve latest updates, add bookmarks and to post comments.

Friends
Friends

1) ProxyFix

Extratorrent2 > Categories > Movies > The Last Legion 2007 x264 720p Esub BluRay Dual Audio English Hindi GOPISAHI torrent


Browse Movies torrents

The Last Legion 2007 x264 720p Esub BluRay Dual Audio English Hindi GOPISAHI torrent


Download torrent: Download The Last Legion 2007 x264 720p Esub BluRay Dual Audio English Hindi GOPISAHI torrent Magnet link Bookmark Torrent: The Last Legion 2007 x264 720p Esub BluRay Dual Audio English Hindi GOPISAHI   The Last Legion 2007 x264 720p Esub BluRay Dual Audio English Hindi GOPISAHI torrent
Info hash: 6169B4628F2FC505AC937490DA0D4BF8AE89E36A
Category: Categories > Movies
Trackers:
View all torrent trackers >
Health:
 seeds: 25 ,  leechers: 12 |  Update >
Torrent language: English English
Total Size: 897.1 MB
Files List:
1    View torrent files >
Uploader:
PENDUDESI
Torrent added: November 21, 2018, 4:30 pm
Users rating: ---, not rated. please login to rate.

Download The Last Legion 2007 x264 720p Esub BluRay Dual Audio English Hindi GOPISAHI torrent



Torrent Description

http://www.gopisahi.pw/

Format                         : Matroska
Format version                 : Version 4 / Version 2
File size                      : 897 MiB
Duration                       : 1 h 41 min
Overall bit rate               : 1 230 kb/s
Movie name                     : The Last Legion 2007 GOPISAHI

Video
Format                         : AVC
Format/Info                    : Advanced Video Codec
Codec ID                       : V_MPEG4/ISO/AVC
Duration                       : 1 h 41 min
Bit rate                       : 1 040 kb/s
Width                          : 1 280 pixels
Height                         : 534 pixels
Display aspect ratio           : 2.40:1
Frame rate mode                : Constant
Frame rate                     : 23.976 (23976/1000) FPS
Original frame rate            : 23.976 (24000/1001) FPS
Color space                    : YUV
Chroma subsampling             : 4:2:0
Bit depth                      : 8 bits
Scan type                      : Progressive
Bits/(Pixel*Frame)             : 0.063
Stream size                    : 758 MiB (84%)
Title                          : GOPISAHI
Writing library                : x264 core 132 r2310 76a5c3

Audio #1
Format                         : AAC
Duration                       : 1 h 37 min
Bit rate                       : 96.0 kb/s
Channel(s)                     : 2 channels
Channel positions              : Front: L R
Sampling rate                  : 48.0 kHz
Frame rate                     : 46.875 FPS (1024 SPF)
Compression mode               : Lossy
Stream size                    : 67.0 MiB (7%)
Title                          : GOPISAHI
Language                       : Hindi

Audio #2
Format                         : AAC
Duration                       : 1 h 41 min
Bit rate                       : 96.0 kb/s
Channel(s)                     : 2 channels
Channel positions              : Front: L R
Sampling rate                  : 48.0 kHz
Frame rate                     : 46.875 FPS (1024 SPF)
Compression mode               : Lossy
Delay relative to video        : 5 ms
Stream size                    : 70.1 MiB (8%)
Title                          : GOPISAHI
Language                       : English




Download The Last Legion 2007 x264 720p Esub BluRay Dual Audio English Hindi GOPISAHI torrent


Related Torrents


Comments   (please login to add your comment!)

gia derza carousel of teen gape     faster     nvidia     072716 217     league     faults 2014     tits     fishbowl california     colors 1988     nokas     mina     hidden cam sex     10 bits     hindi bluray 1080p x264     realtimebondage     james bond yify     lock folder     publicpickups aidra     bridegroom     love 3     bruna cortez     hard sell     on1     raven     


Home - Browse Torrents

Made with love by an Extratorrent Fan!