extratorrent - A Fan Made Alternative Login   |   Register
Important Information
Registrations are open now
-------------------------------------

Please click here to register with Extratorrent2 to recieve latest updates, add bookmarks and to post comments.

Friends
Friends

1) ProxyFix

Extratorrent2 > Categories > TV > Two and a Half Men (2003) Season 6 S06 (1080p AMZN WEB-DL x265 HEVC 10bit EAC3 2.0 RCVR) [QxR] torrent


Browse TV torrents

Two and a Half Men (2003) Season 6 S06 (1080p AMZN WEB-DL x265 HEVC 10bit EAC3 2.0 RCVR) [QxR] torrent


Download torrent: Download Two and a Half Men (2003) Season 6 S06 (1080p AMZN WEB-DL x265 HEVC 10bit EAC3 2.0 RCVR) [QxR] torrent Magnet link Bookmark Torrent: Two and a Half Men (2003) Season 6 S06 (1080p AMZN WEB-DL x265 HEVC 10bit EAC3 2.0 RCVR) [QxR]   Two and a Half Men (2003) Season 6 S06 (1080p AMZN WEB-DL x265 HEVC 10bit EAC3 2.0 RCVR) [QxR] torrent
Info hash: 768C7CA2D070C0B0A19297DB70C2D3C393A1CDB9
Category: Categories > TV
Trackers:
View all torrent trackers >
Health:
 seeds: 8 ,  leechers: 15 |  Update >
Torrent language: English English
Total Size: 11.3 GB
Files List:
24    View torrent files >
Uploader:
QxR
Torrent added: January 21, 2018, 5:18 am
Tags: comedy, romance, utr
Users rating: ---, not rated. please login to rate.

Download Two and a Half Men (2003) Season 6 S06 (1080p AMZN WEB-DL x265 HEVC 10bit EAC3 2.0 RCVR) [QxR] torrent



Torrent Description





Media Information

Code:

General
Format                                   : Matroska
Format version                           : Version 4 / Version 2
File size                                : 480 MiB
Duration                                 : 21 min 16 s
Overall bit rate                         : 3 152 kb/s
Encoded date                             : UTC 2017-11-19 02:31:24
Writing application                      : mkvmerge v12.0.0 ('Trust / Lust') 64bit
Writing library                          : libebml v1.3.4 + libmatroska v1.4.5
Cover                                    : Yes
Attachments                              : cover.jpg

Video
ID                                       : 1
Format                                   : HEVC
Format/Info                              : High Efficiency Video Coding
Format profile                           : Main @Main
Codec ID                                 : V_MPEGH/ISO/HEVC
Duration                                 : 21 min 16 s
Bit rate                                 : 2 926 kb/s
Width                                    : 1 920 pixels
Height                                   : 1 080 pixels
Display aspect ratio                     : 16:9
Frame rate mode                          : Constant
Frame rate                               : 23.976 (24000/1001) FPS
Color space                              : YUV
Chroma subsampling                       : 4:2:0
Bit depth                                : 10 bits
Bits/(Pixel*Frame)                       : 0.059
Stream size                              : 445 MiB (93%)
Writing library                          : x265 2.5+48-bd438ce10843:[Windows][MSVC 1911][64 bit] 10bit
Encoding settings                        : cpuid=1173503 / frame-threads=3 / numa-pools=8 / wpp / no-pmode / no-pme / no-psnr / no-ssim / log-level=2 / input-csp=1 / input-res=1920x1080 / interlace=0 / total-frames=30617 / level-idc=0 / high-tier=1 / uhd-bd=0 / ref=4 / no-allow-non-conformance / no-repeat-headers / annexb / no-aud / no-hrd / info / hash=0 / no-temporal-layers / open-gop / min-keyint=23 / keyint=250 / bframes=4 / b-adapt=2 / b-pyramid / bframe-bias=0 / rc-lookahead=120 / lookahead-slices=4 / scenecut=40 / no-intra-refresh / ctu=64 / min-cu-size=8 / rect / no-amp / max-tu-size=32 / tu-inter-depth=1 / tu-intra-depth=1 / limit-tu=0 / rdoq-level=2 / dynamic-rd=0.00 / no-ssim-rd / signhide / no-tskip / nr-intra=0 / nr-inter=0 / no-constrained-intra / no-strong-intra-smoothing / max-merge=3 / limit-refs=3 / limit-modes / me=3 / subme=5 / merange=57 / temporal-mvp / weightp / no-weightb / no-analyze-src-pics / deblock=-1:-1 / no-sao / no-sao-non-deblock / rd=4 / no-early-skip / rskip / no-fast-intra / no-tskip-fast / no-cu-lossless / no-b-intra / no-splitrd-skip / rdpenalty=0 / psy-rd=1.00 / psy-rdoq=1.00 / no-rd-refine / analysis-reuse-mode=0 / no-lossless / cbqpoffs=0 / crqpoffs=0 / rc=abr / bitrate=2925 / qcomp=0.60 / qpstep=4 / stats-write=0 / stats-read=2 / cplxblur=20.0 / qblur=0.5 / ipratio=1.40 / pbratio=1.30 / aq-mode=2 / aq-strength=0.75 / cutree / zone-count=0 / no-strict-cbr / qg-size=32 / no-rc-grain / qpmax=69 / qpmin=0 / no-const-vbv / sar=0 / overscan=0 / videoformat=5 / range=0 / colorprim=2 / transfer=2 / colormatrix=2 / chromaloc=0 / display-window=0 / max-cll=0,0 / min-luma=0 / max-luma=1023 / log2-max-poc-lsb=8 / vui-timing-info / vui-hrd-info / slices=1 / opt-qp-pps / opt-ref-list-length-pps / no-multi-pass-opt-rps / scenecut-bias=0.05 / no-opt-cu-delta-qp / no-aq-motion / no-hdr / no-hdr-opt / no-dhdr10-opt / analysis-reuse-level=5 / scale-factor=0 / refine-intra=0 / refine-inter=0 / refine-mv=0 / no-limit-sao / ctu-info=0 / no-lowpass-dct / refine-mv-type=0
Default                                  : Yes
Forced                                   : No

Audio
ID                                       : 2
Format                                   : E-AC-3
Format/Info                              : Enhanced Audio Coding 3
Format settings, Endianness              : Big
Codec ID                                 : A_EAC3
Duration                                 : 21 min 16 s
Bit rate mode                            : Constant
Bit rate                                 : 224 kb/s
Channel(s)                               : 2 channels
Channel positions                        : Front: L R
Sampling rate                            : 48.0 kHz
Frame rate                               : 187.500 FPS (256 spf)
Compression mode                         : Lossy
Stream size                              : 34.1 MiB (7%)
Language                                 : English
Default                                  : No
Forced                                   : No

Subtitle
ID                                       : 3
Format                                   : UTF-8
Codec ID                                 : S_TEXT/UTF8
Codec ID/Info                            : UTF-8 Plain Text
Duration                                 : 20 min 43 s
Bit rate                                 : 90 b/s
Count of elements                        : 472
Stream size                              : 13.8 KiB (0%)
Language                                 : English
Default                                  : No
Forced                                   : No

Source Information

Code:

Release:
Two and a Half Men S06 1080p Amazon WEB-DL DD+ 2.0 h.264-TrollHD


Note From QxR:

Quote:

We have no issue with individuals posting or re-uploading our torrents on a platform we aren't on. However, if this is something you'd like to do, please do so in a 'as-is' format. We ask that you do not create a new torrent, include all descriptions you see above including the QxR logo, tags, notes and screenshots. If you'd like to become a permanent poster on a website we don't post to, feel free to get in contact with a QxR member.



Download Two and a Half Men (2003) Season 6 S06 (1080p AMZN WEB-DL x265 HEVC 10bit EAC3 2.0 RCVR) [QxR] torrent


Related Torrents


Comments   (please login to add your comment!)

the guardians 2017 1080p hindi     john wick     bullet witch     melissa moore pure bush     clothed     bottle     hindi     publicpickups ivy rose     the promise 1996     kids     hindi 1080p     bron s04e07     sketchbook pro 64bit     sim     drake hold     dani daniels and her girlfriends     homeland     game of thrones season     room the mystery     road queen 33     boat     skidrow     bob dylan     sep     


Home - Browse Torrents

Made with love by an Extratorrent Fan!