extratorrent - A Fan Made Alternative Login   |   Register
Important Information
Registrations are open now
-------------------------------------

Please click here to register with Extratorrent2 to recieve latest updates, add bookmarks and to post comments.

Friends
Friends

1) ProxyFix

Extratorrent2 > Categories > Movies > Game of Thrones S02 E02 1080p BluRay x264 Dual Audio [Hindi - English DD 5.1] ESub [MW] torrent


Browse Movies torrents

Game of Thrones S02 E02 1080p BluRay x264 Dual Audio [Hindi - English DD 5.1] ESub [MW] torrent


Download torrent: Download Game of Thrones S02 E02 1080p BluRay x264 Dual Audio [Hindi - English DD 5.1] ESub [MW] torrent Magnet link Bookmark Torrent: Game of Thrones S02 E02 1080p BluRay x264 Dual Audio [Hindi - English DD 5.1] ESub [MW]   Game of Thrones S02 E02 1080p BluRay x264 Dual Audio [Hindi - English DD 5.1] ESub [MW] torrent
Info hash: 0A51E56A1A5A403F1E4A0F6234E5F63CB5D075D2
Category: Categories > Movies
Trackers:
View all torrent trackers >
Health:
 seeds: 14 ,  leechers: 10 |  Update >
Torrent language: Hindi Hindi
Total Size: 1.2 GB
Files List:
1    View torrent files >
Uploader:
moviezworldz
Torrent added: September 25, 2018, 4:31 pm
Tags: Action, , Adventure, Drama
Users rating: ---, not rated. please login to rate.

Download Game of Thrones S02 E02 1080p BluRay x264 Dual Audio [Hindi - English DD 5.1] ESub [MW] torrent



Torrent Description





General
Format : Matroska
Format version : Version 4 / Version 2
File size : 1.21 GiB
Duration : 53 min 29 s
Overall bit rate : 3 242 kb/s

Video
ID : 1
Format : AVC
Format/Info : Advanced Video Codec
Format profile :
Format settings : CABAC / 4 Ref Frames
Format settings, CABAC : Yes
Format settings, RefFrames : 4 frames
Codec ID : V_MPEG4/ISO/AVC
Duration : 53 min 29 s
Bit rate : 2 874 kb/s
Width : 1 920 pixels
Height : 1 080 pixels
Display aspect ratio : 16:9
Frame rate mode : Constant
Frame rate : 23.976 (24000/1001) FPS
Color space : YUV
Chroma subsampling : 4:2:0
Bit depth : 8 bits
Scan type : Progressive
Bits/(Pixel*Frame) : 0.058
Stream size : 1.07 GiB (89%)
Writing library : x264 core 123 r2189 35cf912
Language : English
Default : Yes
Forced : No

Audio #1
ID : 3
Format : AAC
Format/Info : Advanced Audio Codec
Format profile : LC
Codec ID : A_AAC-2
Duration : 53 min 24 s
Bit rate : 128 kb/s
Channel(s) : 2 channels
Channel positions : Front: L R
Sampling rate : 44.1 kHz
Frame rate : 43.066 FPS (1024 SPF)
Compression mode : Lossy
Delay relative to video : -417 ms
Stream size : 48.9 MiB (4%)
Language : Hindi
Default : Yes
Forced : No

Audio #2
ID : 4
Format : AC-3
Format/Info : Audio Coding 3
Codec ID : A_AC3
Duration : 53 min 29 s
Bit rate mode : Constant
Bit rate : 224 kb/s
Channel(s) : 6 channels
Channel positions : Front: L C R, Side: L R, LFE
Sampling rate : 48.0 kHz
Frame rate : 31.250 FPS (1536 SPF)
Bit depth : 16 bits
Compression mode : Lossy
Stream size : 85.7 MiB (7%)
Language : English
Service kind : Complete Main
Default : No
Forced : No

Text
ID : 2
Format : PGS
Muxing mode : zlib
Codec ID : S_HDMV/PGS
Codec ID/Info : Picture based subtitle format used on BDs/HD-DVDs
Duration : 50 min 11 s
Bit rate : 14.5 kb/s
Count of elements : 1624
Stream size : 5.19 MiB (0%)
Language : English
Default : Yes
Forced : No


Click To Enlarge Image








Download Game of Thrones S02 E02 1080p BluRay x264 Dual Audio [Hindi - English DD 5.1] ESub [MW] torrent


Related Torrents


Comments   (please login to add your comment!)

sallows     private     stacey     orgasms     orange     noah 720p 2014     the last kingdom     ventura     yts 2017     hannah hays     privatespecials     njpw destruction 2017     new porn     monster     indecentesvoisines     deepest     the walking dead     a lonely place     candice b     1080p bluray x264 etrg     real anal lovers 4     kart     call duty     malayalam 2016     


Home - Browse Torrents

Made with love by an Extratorrent Fan!