extratorrent - A Fan Made Alternative Login   |   Register
Important Information
Registrations are open now
-------------------------------------

Please click here to register with Extratorrent2 to recieve latest updates, add bookmarks and to post comments.

Friends
Friends

1) ProxyFix

Extratorrent2 > Categories > TV > The Walking Dead - 9x03 Warning Signs - Segnali d'allarme.720p.H264.ita.eng.sub.ita.eng-MIRCrew torrent


Browse TV torrents

The Walking Dead - 9x03 Warning Signs - Segnali d'allarme.720p.H264.ita.eng.sub.ita.eng-MIRCrew torrent


Download torrent: Download The Walking Dead - 9x03 Warning Signs - Segnali d'allarme.720p.H264.ita.eng.sub.ita.eng-MIRCrew torrent Magnet link Bookmark Torrent: The Walking Dead - 9x03 Warning Signs - Segnali d'allarme.720p.H264.ita.eng.sub.ita.eng-MIRCrew   The Walking Dead - 9x03 Warning Signs - Segnali d'allarme.720p.H264.ita.eng.sub.ita.eng-MIRCrew torrent
Info hash: 6B921E8D3CE793BFFB9B457458D267852F89AF86
Category: Categories > TV
Trackers:
View all torrent trackers >
Health:
 seeds: 67 ,  leechers: 14 |  Update >
Torrent language: English English
Total Size: 712.4 MB
Files List:
5    View torrent files >
Uploader:
robbyrs
Torrent added: November 21, 2018, 4:30 pm
Users rating: ---, not rated. please login to rate.

Download The Walking Dead - 9x03 Warning Signs - Segnali d'allarme.720p.H264.ita.eng.sub.ita.eng-MIRCrew torrent



Torrent Description



The Walking Dead - 9x03 Warning Signs - Segnali d'allarme.720p.H264.ita.eng.sub.ita.eng-MIRCrew




La nona stagione della serie televisiva The Walking Dead, composta da sedici episodi, è trasmessa in prima visione assoluta negli Stati Uniti d'America dall'emittente AMC dal 7 ottobre 2018

È trascorso un anno e mezzo dalla fine della guerra contro i salvatori.

In una Alexandria ricostruita e prospera, Rick, ora con i capelli più corti e grigi, guarda felicemente Michonne dipingere con Judith. I tre vanno fuori dalle mura per vedere uno stormo di uccelli nel campo.

Episodi:


1 Un nuovo inizio
2 The Bridge - il ponte
3 Warning Signs 21 ottobre 2018 22 ottobre 2018
4 The Obliged 28 ottobre 2018 29 ottobre 2018
5 What Comes After 4 novembre 2018 5 novembre 2018
6 Who Are You Now 11 novembre 2018 12 novembre 2018
7 Stradivarius 18 novembre 2018 19 novembre 2018
8 Evolution 25 novembre 2018 26 novembre 2018







General

Complete name : The Walking Dead - 9x03 Warning Signs - Segnali d'allarme.720p.H264.ita.eng.sub.ita.eng-MIRCrew\The Walking Dead - 9x03 Warning Signs - Segnali d'allarme.720p.H264.ita.eng.sub.ita.eng-MIRCrew.mkv
Format : Matroska
Format version : Version 2
File size : 712 MiB
Duration : 43mn 56s
Overall bit rate : 2 266 Kbps
Movie name : MIRCrew
Encoded date : UTC 2018-10-24 08:48:00
Writing application : Lavf54.63.100
Writing library : Lavf54.63.100

Video
ID : 1
Format : AVC
Format/Info : Advanced Video Codec
Format profile :
Format settings, CABAC : Yes
Format settings, ReFrames : 2 frames
Codec ID : V_MPEG4/ISO/AVC
Duration : 43mn 56s
Bit rate : 1 900 Kbps
Width : 1 280 pixels
Height : 720 pixels
Display aspect ratio : 16:9
Frame rate mode : Variable
Frame rate : 25.000 fps
Color space : YUV
Chroma subsampling : 4:2:0
Bit depth : 8 bits
Scan type : Progressive
Bits/(Pixel*Frame) : 0.082
Stream size : 577 MiB (81%)
Writing library : x264 core 130 r2273
Encoding settings : cabac=1 / ref=2 / deblock=1:0:0 / analyse=0x1:0x131 / me=hex / subme=7 / psy=1 / psy_rd=1.00:0.00 / mixed_ref=0 / me_range=16 / chroma_me=1 / trellis=1 / 8x8dct=0 / cqm=0 / deadzone=21,11 / fast_pskip=1 / chroma_qp_offset=-2 / threads=3 / lookahead_threads=1 / sliced_threads=0 / nr=0 / decimate=1 / interlaced=0 / bluray_compat=0 / constrained_intra=0 / bframes=3 / b_pyramid=0 / b_adapt=1 / b_bias=0 / direct=3 / weightb=1 / open_gop=0 / weightp=2 / keyint=250 / keyint_min=25 / scenecut=40 / intra_refresh=0 / rc_lookahead=40 / rc=abr / mbtree=1 / bitrate=1900 / ratetol=1.0 / qcomp=0.60 / qpmin=10 / qpmax=69 / qpstep=4 / vbv_maxrate=24000 / vbv_bufsize=24000 / nal_hrd=none / ip_ratio=1.40 / aq=1:1.00
Language : Italian
Default : Yes
Forced : No
DURATION : 00:43:56.720000000


Audio #1
ID : 2
Format : AC-3
Format/Info : Audio Coding 3
Mode extension : CM (complete main)
Codec ID : A_AC3
Duration : 43mn 56s
Bit rate mode : Constant
Bit rate : 192 Kbps
Channel(s) : 2 channels
Channel positions : Front: L R
Sampling rate : 48.0 KHz
Bit depth : 16 bits
Compression mode : Lossy
Delay relative to video : 1mn 5s
Stream size : 60.4 MiB (8%)
Title : ITA
Language : Italian
Default : Yes
Forced : Yes
DURATION : 00:43:56.768000000
: BPS DURATION NUMBER_OF_FRAMES NUMBER_OF_BYTES

Audio #2
ID : 3
Format : AC-3
Format/Info : Audio Coding 3
Mode extension : CM (complete main)
Codec ID : A_AC3
Duration : 43mn 56s
Bit rate mode : Constant
Bit rate : 192 Kbps
Channel(s) : 2 channels
Channel positions : Front: L R
Sampling rate : 48.0 KHz
Bit depth : 16 bits
Compression mode : Lossy
Delay relative to video : 1mn 5s
Stream size : 60.4 MiB (8%)
Title : ENG
Language : English
Default : No
Forced : No
DURATION : 00:43:56.704000000






Download The Walking Dead - 9x03 Warning Signs - Segnali d'allarme.720p.H264.ita.eng.sub.ita.eng-MIRCrew torrent


Related Torrents


Comments   (please login to add your comment!)

coldplay a head of dreams     amadeus 1080p     windows 7 boot     obscene     world war 2     dji     hancock 2008 1080p     zen vr     up tat xxx     freshmen anal orientation 2     21naturals alexis brill     gay     interview xxx     slave     stand     alina li 1080p     pirates of the caribbean     1975     tam     ant man and wasp hindi     babes     brother load 3     avengers infinity war 2018 1080p esub     sex with my mom     


Home - Browse Torrents

Made with love by an Extratorrent Fan!