extratorrent - A Fan Made Alternative Login   |   Register
Important Information
Registrations are open now
-------------------------------------

Please click here to register with Extratorrent2 to recieve latest updates, add bookmarks and to post comments.

Friends
Friends

1) ProxyFix

Extratorrent2 > Categories > TV > [REUP] Game of Thrones 2011 Season 2 S02 (1080p Bluray x265 HEVC 10bit AAC 7.1 Tigole) [UTR] torrent


Browse TV torrents

[REUP] Game of Thrones 2011 Season 2 S02 (1080p Bluray x265 HEVC 10bit AAC 7.1 Tigole) [UTR] torrent


Download torrent: Download [REUP] Game of Thrones 2011 Season 2 S02 (1080p Bluray x265 HEVC 10bit AAC 7.1 Tigole) [UTR] torrent Magnet link Bookmark Torrent: [REUP] Game of Thrones 2011 Season 2 S02 (1080p Bluray x265 HEVC 10bit AAC 7.1 Tigole) [UTR]   [REUP] Game of Thrones 2011 Season 2 S02 (1080p Bluray x265 HEVC 10bit AAC 7.1 Tigole) [UTR] torrent
Info hash: B6F0B035810063BF0857377A91A302AF51EA26A0
Category: Categories > TV
Trackers:
View all torrent trackers >
Health:
 seeds: 41 ,  leechers: 88 |  Update >
Torrent language: English English
Total Size: 13.3 GB
Files List:
37    View torrent files >
Uploader:
UTRplus
Torrent added: July 17, 2017, 3:39 am
Tags: adventure, drama, fantasy
Users rating: ---, not rated. please login to rate.

Download [REUP] Game of Thrones 2011 Season 2 S02 (1080p Bluray x265 HEVC 10bit AAC 7.1 Tigole) [UTR] torrent



Torrent Description



Game of Thrones 2011 Season 2 in 1080p, encoded with x265 in HEVC and AAC 7.1 English, with subtitles!
Encoded using the time consuming 2 pass, 10 bit color at 2500 kbps, from a Blu-ray source, for the highest quality possible.



Media Information

Code:

General
Format : Matroska
Format version : Version 4 / Version 2
File size : 1.13 GiB
Duration : 52 min 43 s
Overall bit rate : 3 065 kb/s
Encoded date : UTC 2016-09-19 23:46:47
Writing application : mkvmerge v9.2.0 ('Photograph') 64bit
Writing library : libebml v1.3.3 + libmatroska v1.4.4

Video
ID : 1
Format : HEVC
Format/Info : High Efficiency Video Coding
Format profile : Main @Main
Codec ID : V_MPEGH/ISO/HEVC
Duration : 52 min 43 s
Bit rate : 2 535 kb/s
Width : 1 920 pixels
Height : 1 080 pixels
Display aspect ratio : 16:9
Frame rate mode : Constant
Frame rate : 23.976 (24000/1001) FPS
Color space : YUV
Chroma subsampling : 4:2:0
Bit depth : 10 bits
Bits/(Pixel*Frame) : 0.051
Stream size : 956 MiB (83%)
Writing library : x265 2.0+54-e5ca9b210223:[Windows][GCC 6.1.0][64 bit] 10bit
Encoding settings : wpp / ctu=64 / min-cu-size=8 / max-tu-size=32 / tu-intra-depth=1 / tu-inter-depth=1 / me=1 / subme=2 / merange=57 / no-rect / no-amp / max-merge=2 / temporal-mvp / no-early-skip / rskip / rdpenalty=0 / no-tskip / no-tskip-fast / strong-intra-smoothing / no-lossless / no-cu-lossless / no-constrained-intra / no-fast-intra / open-gop / no-temporal-layers / interlace=0 / keyint=250 / min-keyint=23 / scenecut=40 / rc-lookahead=20 / lookahead-slices=6 / bframes=4 / bframe-bias=0 / b-adapt=2 / ref=3 / limit-refs=3 / no-limit-modes / weightp / no-weightb / aq-mode=1 / qg-size=32 / aq-strength=1.00 / cbqpoffs=0 / crqpoffs=0 / rd=3 / psy-rd=2.00 / rdoq-level=0 / psy-rdoq=0.00 / log2-max-poc-lsb=8 / no-rd-refine / signhide / deblock=0:0 / sao / no-sao-non-deblock / b-pyramid / cutree / no-intra-refresh / rc=2 / pass / bitrate=2527 / qcomp=0.60 / qpmin=0 / qpmax=69 / qpstep=4 / cplxblur=20.0 / qblur=0.5 / ipratio=1.40 / pbratio=1.30
Default : Yes
Forced : No

Audio #1
ID : 2
Format : AAC
Format/Info : Advanced Audio Codec
Format profile : LC
Codec ID : A_AAC
Duration : 52 min 43 s
Bit rate : 395 kb/s
Channel(s) : 8 channels
Channel positions : Front: L C R, Side: L R, Back: L R, LFE
Sampling rate : 48.0 kHz
Frame rate : 46.875 FPS (1024 spf)
Compression mode : Lossy
Delay relative to video : 20 ms
Stream size : 149 MiB (13%)
Language : English
Default : Yes
Forced : No

Audio #2
ID : 3
Format : AAC
Format/Info : Advanced Audio Codec
Format profile : HE-AAC / LC
Codec ID : A_AAC
Duration : 52 min 43 s
Bit rate : 57.0 kb/s
Channel(s) : 2 channels
Channel positions : Front: L R
Sampling rate : 48.0 kHz / 24.0 kHz
Frame rate : 23.438 FPS (1024 spf)
Compression mode : Lossy
Delay relative to video : 31 ms
Stream size : 21.5 MiB (2%)
Language : English
Default : No
Forced : No

Text #1
ID : 4
Format : VobSub
Muxing mode : zlib
Codec ID : S_VOBSUB
Codec ID/Info : Picture based subtitle format used on DVDs
Duration : 48 min 52 s
Bit rate : 7 729 b/s
Count of elements : 740
Stream size : 2.70 MiB (0%)
Language : English
Default : No
Forced : No

Text #2
ID : 5
Format : VobSub
Muxing mode : zlib
Codec ID : S_VOBSUB
Codec ID/Info : Picture based subtitle format used on DVDs
Duration : 44 s 158 ms
Bit rate : 7 589 b/s
Count of elements : 7
Stream size : 40.9 KiB (0%)
Language : English
Default : No
Forced : Yes

Text #3
ID : 6
Format : VobSub
Muxing mode : zlib
Codec ID : S_VOBSUB
Codec ID/Info : Picture based subtitle format used on DVDs
Duration : 48 min 35 s
Bit rate : 7 399 b/s
Count of elements : 697
Stream size : 2.57 MiB (0%)
Language : French
Default : No
Forced : No

Text #4
ID : 7
Format : VobSub
Muxing mode : zlib
Codec ID : S_VOBSUB
Codec ID/Info : Picture based subtitle format used on DVDs
Duration : 48 min 35 s
Bit rate : 7 665 b/s
Count of elements : 697
Stream size : 2.66 MiB (0%)
Language : Spanish
Default : No
Forced : No

Text #5
ID : 8
Format : VobSub
Muxing mode : zlib
Codec ID : S_VOBSUB
Codec ID/Info : Picture based subtitle format used on DVDs
Duration : 48 min 35 s
Bit rate : 7 484 b/s
Count of elements : 690
Stream size : 2.60 MiB (0%)
Language : German
Default : No
Forced : No

Text #6
ID : 9
Format : VobSub
Muxing mode : zlib
Codec ID : S_VOBSUB
Codec ID/Info : Picture based subtitle format used on DVDs
Duration : 44 s 124 ms
Bit rate : 8 039 b/s
Count of elements : 8
Stream size : 43.3 KiB (0%)
Title : Forced
Language : German
Default : No
Forced : No

Text #7
ID : 10
Format : VobSub
Muxing mode : zlib
Codec ID : S_VOBSUB
Codec ID/Info : Picture based subtitle format used on DVDs
Duration : 49 min 24 s
Bit rate : 7 447 b/s
Count of elements : 725
Stream size : 2.63 MiB (0%)
Language : Italian
Default : No
Forced : No

Text #8
ID : 11
Format : VobSub
Muxing mode : zlib
Codec ID : S_VOBSUB
Codec ID/Info : Picture based subtitle format used on DVDs
Duration : 48 min 35 s
Bit rate : 7 460 b/s
Count of elements : 698
Stream size : 2.59 MiB (0%)
Language : Portuguese
Default : No
Forced : No

Text #9
ID : 12
Format : VobSub
Muxing mode : zlib
Codec ID : S_VOBSUB
Codec ID/Info : Picture based subtitle format used on DVDs
Duration : 48 min 35 s
Bit rate : 7 696 b/s
Count of elements : 697
Stream size : 2.67 MiB (0%)
Language : Dutch
Default : No
Forced : No

Text #10
ID : 13
Format : VobSub
Muxing mode : zlib
Codec ID : S_VOBSUB
Codec ID/Info : Picture based subtitle format used on DVDs
Duration : 48 min 35 s
Bit rate : 7 180 b/s
Count of elements : 697
Stream size : 2.50 MiB (0%)
Language : Danish
Default : No
Forced : No

Text #11
ID : 14
Format : VobSub
Muxing mode : zlib
Codec ID : S_VOBSUB
Codec ID/Info : Picture based subtitle format used on DVDs
Duration : 48 min 35 s
Bit rate : 6 602 b/s
Count of elements : 697
Stream size : 2.29 MiB (0%)
Language : Finnish
Default : No
Forced : No

Text #12
ID : 15
Format : VobSub
Muxing mode : zlib
Codec ID : S_VOBSUB
Codec ID/Info : Picture based subtitle format used on DVDs
Duration : 48 min 35 s
Bit rate : 6 795 b/s
Count of elements : 697
Stream size : 2.36 MiB (0%)
Language : Norwegian Bokmal
Default : No
Forced : No

Text #13
ID : 16
Format : VobSub
Muxing mode : zlib
Codec ID : S_VOBSUB
Codec ID/Info : Picture based subtitle format used on DVDs
Duration : 48 min 35 s
Bit rate : 6 949 b/s
Count of elements : 697
Stream size : 2.42 MiB (0%)
Language : Swedish
Default : No
Forced : No

Menu
00:00:00.000 : en:Chapter 01
00:01:56.658 : en:Chapter 02
00:10:18.200 : en:Chapter 03
00:18:17.930 : en:Chapter 04
00:24:29.259 : en:Chapter 05
00:31:41.733 : en:Chapter 06
00:41:05.713 : en:Chapter 07
00:51:24.247 : en:Chapter 08



Source Information

Code:

Complete name : Game of Thrones S02E01 The North Remembers.mkv
File size : 12.3 GiB
Duration : 52mn 43s
Overall bit rate mode : Variable
Overall bit rate : 33.5 Mbps

Complete name : Game of Thrones S02E02 The Night Lands.mkv
File size : 12.4 GiB
Duration : 53mn 31s
Overall bit rate mode : Variable
Overall bit rate : 33.2 Mbps

Complete name : Game of Thrones S02E03 What Is Dead May Never Die.mkv
File size : 13.2 GiB
Duration : 52mn 46s
Overall bit rate mode : Variable
Overall bit rate : 35.7 Mbps

Complete name : Game of Thrones S02E04 Garden of Bones.mkv
File size : 13.6 GiB
Duration : 50mn 43s
Overall bit rate mode : Variable
Overall bit rate : 38.5 Mbps

Complete name : Game of Thrones S02E05 The Ghost of Harrenhal.mkv
File size : 10.1 GiB
Duration : 54mn 12s
Overall bit rate mode : Variable
Overall bit rate : 26.7 Mbps

Complete name : Game of Thrones S02E06 The Old Gods and the New.mkv
File size : 10.2 GiB
Duration : 54mn 1s
Overall bit rate mode : Variable
Overall bit rate : 27.0 Mbps

Complete name : Game of Thrones S02E07 A Man Without Honor.mkv
File size : 10.4 GiB
Duration : 55mn 12s
Overall bit rate mode : Variable
Overall bit rate : 27.0 Mbps

Complete name : Game of Thrones S02E08 The Prince of Winterfell.mkv
File size : 14.3 GiB
Duration : 53mn 23s
Overall bit rate mode : Variable
Overall bit rate : 38.4 Mbps

Complete name : Game of Thrones S02E09 Blackwater.mkv
File size : 13.8 GiB
Duration : 54mn 29s
Overall bit rate mode : Variable
Overall bit rate : 36.3 Mbps

Complete name : Game of Thrones S02E10 Valar Morghulis.mkv
File size : 12.8 GiB
Duration : 1h 3mn
Overall bit rate mode : Variable
Overall bit rate : 28.9 Mbps



Download [REUP] Game of Thrones 2011 Season 2 S02 (1080p Bluray x265 HEVC 10bit AAC 7.1 Tigole) [UTR] torrent


Related Torrents


Comments   (please login to add your comment!)

red xxx     wash     parker     mp4 x264     young cute     monsters     mercer rick mercer report     japan     maria bose     bigtitsroundasses fesser     magazine     madison     lesbian     veera 2011     manny pacquiao     kavali     kitchen     kingdom     kendra     kaspersky     husband     hindi aac     gear     fucked     


Home - Browse Torrents

Made with love by an Extratorrent Fan!