extratorrent - A Fan Made Alternative Login   |   Register
Important Information
Registrations are open now
-------------------------------------

Please click here to register with Extratorrent2 to recieve latest updates, add bookmarks and to post comments.

Friends
Friends

1) ProxyFix

Extratorrent2 > Categories > TV > Two and a Half Men (2003) Season 10 S10 (1080p AMZN WEB-DL x265 HEVC 10bit EAC3 6.0 RCVR) [QxR] torrent


Browse TV torrents

Two and a Half Men (2003) Season 10 S10 (1080p AMZN WEB-DL x265 HEVC 10bit EAC3 6.0 RCVR) [QxR] torrent


Download torrent: Download Two and a Half Men (2003) Season 10 S10 (1080p AMZN WEB-DL x265 HEVC 10bit EAC3 6.0 RCVR) [QxR] torrent Magnet link Bookmark Torrent: Two and a Half Men (2003) Season 10 S10 (1080p AMZN WEB-DL x265 HEVC 10bit EAC3 6.0 RCVR) [QxR]   Two and a Half Men (2003) Season 10 S10 (1080p AMZN WEB-DL x265 HEVC 10bit EAC3 6.0 RCVR) [QxR] torrent
Info hash: EDA46CFCF5E050B91ED04A9EAACD573F0829FF63
Category: Categories > TV
Trackers:
View all torrent trackers >
Health:
 seeds: 16 ,  leechers: 22 |  Update >
Torrent language: English English
Total Size: 14.0 GB
Files List:
23    View torrent files >
Uploader:
QxR
Torrent added: April 21, 2018, 3:34 pm
Tags: comedy, romance
Users rating: ---, not rated. please login to rate.

Download Two and a Half Men (2003) Season 10 S10 (1080p AMZN WEB-DL x265 HEVC 10bit EAC3 6.0 RCVR) [QxR] torrent



Torrent Description





Media Information

Code:

General
Format : Matroska
Format version : Version 4 / Version 2
File size : 420 MiB
Duration : 21 min 4 s
Overall bit rate : 2 784 kb/s
Encoded date : UTC 2018-02-01 23:11:09
Writing application : mkvmerge v12.0.0 ('Trust / Lust') 64bit
Writing library : libebml v1.3.4 + libmatroska v1.4.5
Cover : Yes
Attachments : cover.jpg

Video
ID : 1
Format : HEVC
Format/Info : High Efficiency Video Coding
Format profile : Main @Main
Codec ID : V_MPEGH/ISO/HEVC
Duration : 21 min 4 s
Bit rate : 2 141 kb/s
Width : 1 920 pixels
Height : 1 080 pixels
Display aspect ratio : 16:9
Frame rate mode : Constant
Frame rate : 23.976 (24000/1001) FPS
Color space : YUV
Chroma subsampling : 4:2:0
Bit depth : 10 bits
Bits/(Pixel*Frame) : 0.043
Stream size : 323 MiB (77%)
Writing library : x265 2.6+32-b763c22920f6:[Windows][MSVC 1900][64 bit] 10bit
Encoding settings : cpuid=1173503 / frame-threads=3 / numa-pools=8 / wpp / no-pmode / no-pme / no-psnr / no-ssim / log-level=2 / input-csp=1 / input-res=1920x1080 / interlace=0 / total-frames=30317 / level-idc=0 / high-tier=1 / uhd-bd=0 / ref=4 / no-allow-non-conformance / no-repeat-headers / annexb / no-aud / no-hrd / info / hash=0 / no-temporal-layers / open-gop / min-keyint=23 / keyint=250 / gop-lookahead=0 / bframes=8 / b-adapt=2 / b-pyramid / bframe-bias=0 / rc-lookahead=80 / lookahead-slices=4 / scenecut=40 / radl=0 / no-intra-refresh / ctu=64 / min-cu-size=8 / rect / no-amp / max-tu-size=32 / tu-inter-depth=1 / tu-intra-depth=1 / limit-tu=0 / rdoq-level=1 / dynamic-rd=0.00 / no-ssim-rd / signhide / no-tskip / nr-intra=0 / nr-inter=0 / no-constrained-intra / no-strong-intra-smoothing / max-merge=3 / limit-refs=3 / limit-modes / me=3 / subme=5 / merange=57 / temporal-mvp / weightp / weightb / no-analyze-src-pics / deblock=-1:-1 / no-sao / no-sao-non-deblock / rd=4 / no-early-skip / no-rskip / no-fast-intra / no-tskip-fast / no-cu-lossless / no-b-intra / no-splitrd-skip / rdpenalty=0 / psy-rd=0.50 / psy-rdoq=1.00 / no-rd-refine / no-lossless / cbqpoffs=0 / crqpoffs=0 / rc=crf / crf=22.5 / qcomp=0.60 / qpstep=4 / stats-write=0 / stats-read=0 / ipratio=1.40 / pbratio=1.30 / aq-mode=2 / aq-strength=1.00 / cutree / zone-count=0 / no-strict-cbr / qg-size=32 / no-rc-grain / qpmax=69 / qpmin=0 / no-const-vbv / sar=0 / overscan=0 / videoformat=5 / range=0 / colorprim=2 / transfer=2 / colormatrix=2 / chromaloc=0 / display-window=0 / max-cll=0,0 / min-luma=0 / max-luma=1023 / log2-max-poc-lsb=8 / vui-timing-info / vui-hrd-info / slices=1 / no-opt-qp-pps / no-opt-ref-list-length-pps / no-multi-pass-opt-rps / scenecut-bias=0.05 / no-opt-cu-delta-qp / no-aq-motion / no-hdr / no-hdr-opt / no-dhdr10-opt / analysis-reuse-level=5 / scale-factor=0 / refine-intra=0 / refine-inter=0 / refine-mv=0 / no-limit-sao / ctu-info=0 / no-lowpass-dct / refine-mv-type=0 / copy-pic=1
Default : Yes
Forced : No

Audio
ID : 2
Format : E-AC-3
Format/Info : Enhanced Audio Coding 3
Format settings, Endianness : Big
Codec ID : A_EAC3
Duration : 21 min 4 s
Bit rate mode : Constant
Bit rate : 640 kb/s
Channel(s) : 6 channels
Channel positions : Front: L C R, Side: L R, LFE
Sampling rate : 48.0 kHz
Frame rate : 187.500 FPS (256 spf)
Compression mode : Lossy
Stream size : 96.5 MiB (23%)
Language : English
Default : No
Forced : No

Subtitle
ID : 3
Format : UTF-8
Codec ID : S_TEXT/UTF8
Codec ID/Info : UTF-8 Plain Text
Duration : 20 min 56 s
Bit rate : 78 b/s
Count of elements : 450
Stream size : 12.1 KiB (0%)
Language : English
Default : No
Forced : No

Source Information

Code:

Release:
Two and a Half Men S10 1080p AMZN WEB-DL DD+ 5.1 H.264-AJP69 (Thanks!)


Note From QxR:

Quote:

Whilst we are happy for our releases to be re-posted on a platform we aren't on, please do so in an 'as-is' format. We ask that you do not create a new torrent, include all descriptions you see above including the QxR logo, tags, notes and screenshots. If you'd like to become a permanent poster on a website we don't post to, feel free to get in contact with a QxR member.



Download Two and a Half Men (2003) Season 10 S10 (1080p AMZN WEB-DL x265 HEVC 10bit EAC3 6.0 RCVR) [QxR] torrent


Related Torrents


Comments   (please login to add your comment!)

hindi 2017 720p     the t     kylie page 2017     hindi     dvd18     melissa moore pure bush     stb     shankar mahadevan     clothed     2017 brrip     trip to bhangarh     tasha     aditi rao hydari     xxxtentacion arms around you     son of devil     tanner mayes     cruz     sexuallybroken 720p     tushy anal     convertxtovideo ultimate 2     eos     pornstars like it big 17     knight rider season     bitoni     


Home - Browse Torrents

Made with love by an Extratorrent Fan!