extratorrent - A Fan Made Alternative Login   |   Register
Important Information
Registrations are open now
-------------------------------------

Please click here to register with Extratorrent2 to recieve latest updates, add bookmarks and to post comments.

Friends
Friends

1) ProxyFix

Extratorrent2 > Categories > Movies > Game of Thrones S02 E03 1080p BluRay x264 Dual Audio [Hindi - English] ESub [MW] torrent


Browse Movies torrents

Game of Thrones S02 E03 1080p BluRay x264 Dual Audio [Hindi - English] ESub [MW] torrent


Download torrent: Download Game of Thrones S02 E03 1080p BluRay x264 Dual Audio [Hindi - English] ESub [MW] torrent Magnet link Bookmark Torrent: Game of Thrones S02 E03 1080p BluRay x264 Dual Audio [Hindi - English] ESub [MW]   Game of Thrones S02 E03 1080p BluRay x264 Dual Audio [Hindi - English] ESub [MW] torrent
Info hash: 1B2CF9DBB2A43F4E0BFCFD97B99750B9F47FB6C8
Category: Categories > Movies
Trackers:
View all torrent trackers >
Health:
 seeds: 10 ,  leechers: 6 |  Update >
Torrent language: Hindi Hindi
Total Size: 1.2 GB
Files List:
1    View torrent files >
Uploader:
moviezworldz
Torrent added: October 13, 2018, 4:31 pm
Tags: Action, Adventure, Drama
Users rating: ---, not rated. please login to rate.

Download Game of Thrones S02 E03 1080p BluRay x264 Dual Audio [Hindi - English] ESub [MW] torrent



Torrent Description





General
Format : Matroska
Format version : Version 4 / Version 2
File size : 1.20 GiB
Duration : 52 min 45 s
Overall bit rate : 3 264 kb/s

Video
ID : 1
Format : AVC
Format/Info : Advanced Video Codec
Format profile :
Format settings : CABAC / 4 Ref Frames
Format settings, CABAC : Yes
Format settings, RefFrames : 4 frames
Codec ID : V_MPEG4/ISO/AVC
Duration : 52 min 44 s
Bit rate : 2 915 kb/s
Width : 1 920 pixels
Height : 1 080 pixels
Display aspect ratio : 16:9
Frame rate mode : Variable
Frame rate : 23.838 FPS
Original frame rate : 23.976 (24000/1001) FPS
Color space : YUV
Chroma subsampling : 4:2:0
Bit depth : 8 bits
Scan type : Progressive
Bits/(Pixel*Frame) : 0.059
Stream size : 1.07 GiB (89%)
Writing library : x264 core 123 r2189 35cf912
Language : English
Default : Yes
Forced : No

Audio #1
ID : 3
Format : AAC
Format/Info : Advanced Audio Codec
Format profile : LC
Codec ID : A_AAC-2
Duration : 52 min 44 s
Bit rate : 132 kb/s
Channel(s) : 2 channels
Channel positions : Front: L R
Sampling rate : 48.0 kHz
Frame rate : 46.875 FPS (1024 SPF)
Compression mode : Lossy
Stream size : 49.1 MiB (4%)
Language : Hindi
Default : Yes
Forced : Yes

Audio #2
ID : 4
Format : AC-3
Format/Info : Audio Coding 3
Codec ID : A_AC3
Duration : 52 min 26 s
Bit rate mode : Constant
Bit rate : 224 kb/s
Channel(s) : 6 channels
Channel positions : Front: L C R, Side: L R, LFE
Sampling rate : 48.0 kHz
Frame rate : 31.250 FPS (1536 SPF)
Bit depth : 16 bits
Compression mode : Lossy
Stream size : 84.0 MiB (7%)
Language : English
Service kind : Complete Main
Default : No
Forced : No

Text
ID : 2
Format : PGS
Muxing mode : zlib
Codec ID : S_HDMV/PGS
Codec ID/Info : Picture based subtitle format used on BDs/HD-DVDs
Duration : 49 min 20 s
Bit rate : 12.1 kb/s
Count of elements : 1414
Stream size : 4.27 MiB (0%)
Language : English
Default : Yes
Forced : No



Click To Enlarge Image









Download Game of Thrones S02 E03 1080p BluRay x264 Dual Audio [Hindi - English] ESub [MW] torrent


Related Torrents


Comments   (please login to add your comment!)

office pack     telugu     piper     teacher     taxi     janson     muqabla     table     sydney     sunny     style     spy     sophia     sluts     slave     shemale     lucia lace     s x264 hindi     river     rich     coco     red xxx     ray     paula shy     


Home - Browse Torrents

Made with love by an Extratorrent Fan!